Torrent letöltés / információk

Crimson.Tide.1995.BDRip.Hun.Xvid-PiRaNHa torrent
(Filmek => DIVX / XVID)

Letöltés / információk:
Crimson.Tide.1995.BDRip.Hun.Xvid-PiRaNHa | torrent letöltés súgó
Ha nem sikerül a letöltés, nézd meg a hasonló torrentek listáját is!
Tracker:
Z-tracker

Meghívót szerenél a(z) Z-tracker oldalra? Meghívót adnál? Esetleg cserélnél? Z-tracker meghívó

Megosztás:
Torrent leírás: [+] [-]
[i]
Az utolsó esély
/Crimson Tide/

magyarul beszélő, amerikai akciófilm, 111 perc, 1995

Leírás:

Egy orosz nacionalista csoport átveszi a hatalmat az
egyik nukleáris rakétabázison, s ezzel a világ a
katasztrófa szélére sodródik. A USS Alabama tengeralattjáró
épp orosz vizeken cirkál, és elegendő tűzerővel rendelkezik
a harmadik világháború kirobbantásához. A bekövetkező
zűrzavarban két tengerésztiszt, Frank Ramsey (Gene Hackman)
kapitány és másodtisztje, Ron Hunter (Denzel Washington)
hadnagy csap össze. Kettőjük küzdelme az egész világ sorsára
kihat: Hunter ragaszkodása a szabályokhoz gátat szab Ramsey
agresszív természetének. Ebben az erőpróbában a legénység
lázadásra készül.

Stáblista:


Szereplők

Frank Ramsey kapitány - Gene Hackman
Ron Hunter hadnagy - Denzel Washington
Peter Ince - Viggo Mortensen
Roy Zimmer - Matt Craven
Bobby Dougherty - James Gandolfini
Darik Westergard - Rocky Carroll
William Barnes - Steve Zahn
Parancsnok - George Dzundza
Bennefield - Eric Bruskotter

Alkotók


rendező:
Tony Scott
író:
Michael Schiffer Richard P. Henrick
forgatókönyvíró:
Michael Schiffer
zeneszerző:
Hans Zimmer
operatőr:
Dariusz Wolski
jelmeztervező:
George L. Little
producer:
Jerry Bruckheimer Don Simpson
executive producer:
Lucas Foster Mike Moder Bill Unger
látványtervező:
Michael White
vágó:
Chris Lebenzon

Médiainfó:

General
Complete name : Crimson.Tide.1995.BDRip.Hun.Xvid-PiRaNHa\Crimson.Tide.1995.BDRip.Hun.Xvid-PiRaNHa.avi
Format : AVI
Format/Info : Audio Video Interleave
File size : 1.34 GiB
Duration : 1h 55mn
Overall bit rate : 1 656 Kbps
Writing application : VirtualDubMod 1.5.10.3 | www.virtualdub-fr.org || (build 2550/release)
Writing library : VirtualDubMod build 2550/release

Video
ID : 0
Format : MPEG-4 Visual
Format profile : Advanced [email protected]
Format settings, BVOP : 2
Format settings, QPel : Yes
Format settings, GMC : No warppoints
Format settings, Matrix : Default (MPEG)
Codec ID : XVID
Codec ID/Hint : XviD
Duration : 1h 55mn
Bit rate : 1 326 Kbps
Width : 720 pixels
Height : 304 pixels
Display aspect ratio : 2.35:1
Original display aspect ratio : 2.35:1
Frame rate : 23.976 (24000/1001) fps
Color space : YUV
Chroma subsampling : 4:2:0
Bit depth : 8 bits
Scan type : Progressive
Compression mode : Lossy
Bits/(Pixel*Frame) : 0.253
Stream size : 1.07 GiB (80%)
Writing library : XviD 63

Audio
ID : 1
Format : AC-3
Format/Info : Audio Coding 3
Mode extension : CM (complete main)
Format settings, Endianness : Big
Codec ID : 2000
Duration : 1h 55mn
Bit rate mode : Constant
Bit rate : 320 Kbps
Channel(s) : 2 channels
Channel positions : Front: L R
Sampling rate : 48.0 KHz
Frame rate : 31.250 fps (1536 spf)
Compression mode : Lossy
Stream size : 265 MiB (19%)
Alignment : Split accross interleaves
Interleave, duration : 42 ms (1.00 video frame)
Interleave, preload duration : 500 ms

IMDB/Web Link
NFO fájl: [Megtekinés] [+] [-]
Méret:
1.34 GB (1,437,792,236 Byte)
Info hash:
F5769187E72B3CE16F1B594F9FAC07E77846824
Kapcsolatok:
1 feltöltő, 1 letöltő (2 összesen)
Torrent beküldésnek ideje:
2017. 11. 10. 23:20:00
Torrent információk utolsó frissítése:
2017. 11. 11. 01:44:05
Fájlok (8 db): [Megtekinés] [+] [-]
Hasonló torrentek: [+] [-]
Click to see how many people are online
© 2007 - 2017 | TorrentKereső.Hu | Torrent letöltés | Torrent oldalak | Impresszum | Kapcsolat